Browse torrents

18+ Swiping Sisters Men 2021 Korean Movie 720p HDRip 610MB mp4
18+ Swiping Sisters Men 2021 Korean Movie 720p HDRip 610MB mp4

0

Added Time : 1 month

Last Update : 1 month Update

Source : ittorrent

Seeders : 0

Leechers : 0

Size : 614 MB

Total Files : 1

infohash : ade30e76d2775c67fc9c68e9cc322998d1d94434


General
Complete name                            : 18+ Swiping Sisters Men 2021 Korean Movie 720p HDRip 610MB.mp4
Format                                  : MPEG-4
Format profile                          : Base Media / Version 2
Codec ID                                : mp42
File size                                : 614 MiB
Duration                                : 1h 23mn
Overall bit rate mode                    : Constant
Overall bit rate                        : 1 032 Kbps
ContentType                              : Unknown Type
Encoded date                            : UTC 2021-03-28 05:11:24
Tagged date                              : UTC 2021-03-28 05:11:24


Video
ID                                      : 1
Format                                  : MPEG-4 Visual
Format settings, BVOP                    : Yes
Format settings, QPel                    : No
Format settings, GMC                    : No warppoints
Format settings, Matrix                  : Default (H.263)
Codec ID                                : 20
Duration                                : 1h 23mn
Bit rate mode                            : Constant
Bit rate                                : 767 Kbps
Width                                    : 720 pixels
Height                                  : 576 pixels
Display aspect ratio                    : 5:4
Frame rate mode                          : Constant
Frame rate                              : 12.000 fps
Standard                                : PAL
Color space                              : YUV
Bit depth                                : 8 bits
Scan type                                : Progressive
Compression mode                        : Lossy
Bits/(Pixel*Frame)                      : 0.154
Stream size                              : 456 MiB (74%)
Writing library                          : Intel(R) MPEG-4 encoder based on Intel(R) IPP 6.1 build 137.20[6.1.137.763]
Language                                : English
Color primaries                          : BT.709
Transfer characteristics                : BT.709
Matrix coefficients                      : BT.709

Audio
ID                                      : 2
Format                                  : AAC
Format/Info                              : Advanced Audio Codec
Format profile                          : LC
Codec ID                                : 40
Duration                                : 1h 23mn
Bit rate mode                            : Constant
Bit rate                                : 257 Kbps
Channel(s)                              : 2 channels
Channel positions                        : Front: L R
Sampling rate                            : 44.1 KHz
Compression mode                        : Lossy
Stream size                              : 153 MiB (25%)
Language                                : English



614 MB 18+ Swiping Sisters Men 2021 Korean Movie 720p HDRip 610MB.mp4

Login to Post Comments

Code:

  • udp://tracker.coppersurfer.tk:6969/announce
  • udp://tracker.leechers-paradise.org:6969/announce
  • udp://open.stealth.si:80/announce
  • udp://exodus.desync.com:6969
  • udp://p4p.arenabg.com:1337/announce
  • udp://explodie.org:6969/announce
  • udp://tracker.opentrackr.org:1337/announce
  • udp://tracker.tiny-vps.com:6969/announce
  • udp://open.demonii.si:1337/announce
  • udp://tracker.torrent.eu.org:451/announce
  • udp://tracker.pirateparty.gr:6969/announce
  • udp://ipv4.tracker.harry.lu:80/announce
  • udp://tracker.cyberia.is:6969/announce
  • udp://9.rarbg.to:2710/announce
  • udp://denis.stalker.upeer.me:6969/announce