Browse torrents

Miss Call 2021 Bengali Movie 750MB mp4
Miss Call 2021 Bengali Movie 750MB mp4

0

Added Time : 1 month

Last Update : 1 month Update

Source : ittorrent

Seeders : 0

Leechers : 0

Size : 753 MB

Total Files : 1

infohash : d3566a8e6d81b4d1f711c705553340781ddf4f69


General
Complete name                            : Miss Call 2021 Bengali Movie 750MB.mp4
Format                                  : MPEG-4
Format profile                          : Base Media
Codec ID                                : isom
File size                                : 753 MiB
Duration                                : 2h 31mn
Overall bit rate mode                    : Constant
Overall bit rate                        : 695 Kbps
Encoded date                            : UTC 2021-03-26 12:01:08
Tagged date                              : UTC 2021-03-26 12:01:08

Video
ID                                      : 1
Format                                  : MPEG-4 Visual
Format profile                          : Advanced [email protected]
Format settings, BVOP                    : Yes
Format settings, QPel                    : No
Format settings, GMC                    : No warppoints
Format settings, Matrix                  : Default (MPEG)
Codec ID                                : 20
Duration                                : 2h 31mn
Source duration                          : 2h 31mn
Bit rate mode                            : Constant
Bit rate                                : 596 Kbps
Nominal bit rate                        : 192 Kbps
Width                                    : 640 pixels
Height                                  : 352 pixels
Display aspect ratio                    : 16:9
Frame rate mode                          : Variable
Frame rate                              : 15.000 fps
Minimum frame rate                      : 7.500 fps
Maximum frame rate                      : 15.000 fps
Color space                              : YUV
Chroma subsampling                      : 4:2:0
Bit depth                                : 8 bits
Scan type                                : Progressive
Compression mode                        : Lossy
Bits/(Pixel*Frame)                      : 0.176
Stream size                              : 646 MiB (86%)
Source stream size                      : 646 MiB (86%)
Language                                : English
Encoded date                            : UTC 2021-03-26 12:01:08
Tagged date                              : UTC 2021-03-26 12:01:08
mdhd_Duration                            : 9102758

Audio
ID                                      : 2
Format                                  : AAC
Format/Info                              : Advanced Audio Codec
Format profile                          : LC
Codec ID                                : 40
Duration                                : 2h 31mn
Bit rate mode                            : Constant
Bit rate                                : 96.0 Kbps
Channel(s)                              : 2 channels
Channel positions                        : Front: L R
Sampling rate                            : 48.0 KHz
Compression mode                        : Lossy
Stream size                              : 104 MiB (14%)
Language                                : English
Encoded date                            : UTC 2021-03-26 12:01:08
Tagged date                              : UTC 2021-03-26 12:01:08
mdhd_Duration                            : 9121651




753 MB Miss Call 2021 Bengali Movie 750MB.mp4

Login to Post Comments

Code:

  • udp://tracker.coppersurfer.tk:6969/announce
  • udp://tracker.leechers-paradise.org:6969/announce
  • udp://open.stealth.si:80/announce
  • udp://exodus.desync.com:6969
  • udp://p4p.arenabg.com:1337/announce
  • udp://explodie.org:6969/announce
  • udp://tracker.opentrackr.org:1337/announce
  • udp://tracker.tiny-vps.com:6969/announce
  • udp://open.demonii.si:1337/announce
  • udp://tracker.torrent.eu.org:451/announce
  • udp://tracker.pirateparty.gr:6969/announce
  • udp://ipv4.tracker.harry.lu:80/announce
  • udp://tracker.cyberia.is:6969/announce
  • udp://9.rarbg.to:2710/announce
  • udp://denis.stalker.upeer.me:6969/announce