Browse torrents

Red 2021 Telugu Movie 720p WEB-DL 1GB mp4
Red 2021 Telugu Movie 720p WEB-DL 1GB  mp4

0

Added Time : 1 month

Last Update : 1 hour Update

Source : ittorrent

Seeders : 0

Leechers : 0

Size : 1.18 GB

Total Files : 1

infohash : 15c9f448b2a65f55e0fe41f82e9453a60ae9eb6e


General
Complete name                            : Red 2021 Telugu Movie 720p WEB-DL 1GB .mp4
Format                                  : MPEG-4
Format profile                          : Base Media / Version 2
Codec ID                                : mp42
File size                                : 1.18 GiB
Duration                                : 2h 47mn
Overall bit rate mode                    : Constant
Overall bit rate                        : 1 011 Kbps
ContentType                              : Unknown Type
Encoded date                            : UTC 2021-02-23 12:28:40
Tagged date                              : UTC 2021-02-23 12:28:40


Video
ID                                      : 1
Format                                  : MPEG-4 Visual
Format settings, BVOP                    : Yes
Format settings, QPel                    : No
Format settings, GMC                    : No warppoints
Format settings, Matrix                  : Default (H.263)
Codec ID                                : 20
Duration                                : 2h 47mn
Bit rate mode                            : Constant
Bit rate                                : 768 Kbps
Width                                    : 720 pixels
Height                                  : 576 pixels
Display aspect ratio                    : 5:4
Frame rate mode                          : Constant
Frame rate                              : 12.000 fps
Standard                                : PAL
Color space                              : YUV
Bit depth                                : 8 bits
Scan type                                : Progressive
Compression mode                        : Lossy
Bits/(Pixel*Frame)                      : 0.154
Stream size                              : 921 MiB (76%)
Writing library                          : Intel(R) MPEG-4 encoder based on Intel(R) IPP 6.1 build 137.20[6.1.137.763]
Language                                : English
Color primaries                          : BT.709
Transfer characteristics                : BT.709
Matrix coefficients                      : BT.709

Audio
ID                                      : 2
Format                                  : AAC
Format/Info                              : Advanced Audio Codec
Format profile                          : LC
Codec ID                                : 40
Duration                                : 2h 47mn
Bit rate mode                            : Constant
Bit rate                                : 234 Kbps
Channel(s)                              : 2 channels
Channel positions                        : Front: L R
Sampling rate                            : 44.1 KHz
Compression mode                        : Lossy
Stream size                              : 281 MiB (23%)
Language                                : English



1.18 GB Red 2021 Telugu Movie 720p WEB-DL 1GB .mp4

Login to Post Comments

Code:

  • udp://tracker.coppersurfer.tk:6969/announce
  • udp://tracker.leechers-paradise.org:6969/announce
  • udp://open.stealth.si:80/announce
  • udp://exodus.desync.com:6969
  • udp://p4p.arenabg.com:1337/announce
  • udp://explodie.org:6969/announce
  • udp://tracker.opentrackr.org:1337/announce
  • udp://tracker.tiny-vps.com:6969/announce
  • udp://open.demonii.si:1337/announce
  • udp://tracker.torrent.eu.org:451/announce
  • udp://tracker.pirateparty.gr:6969/announce
  • udp://ipv4.tracker.harry.lu:80/announce
  • udp://tracker.cyberia.is:6969/announce
  • udp://9.rarbg.to:2710/announce
  • udp://denis.stalker.upeer.me:6969/announce